<?xml version="1.0" standalone="no"?>
<!DOCTYPE svg PUBLIC "-//W3C//DTD SVG 1.1//EN" "http://www.w3.org/Graphics/SVG/1.1/DTD/svg11.dtd" >
<svg xmlns="http://www.w3.org/2000/svg" xmlns:xlink="http://www.w3.org/1999/xlink" version="1.1">
<metadata></metadata>
<defs>
<font id="colaborate-thinregular" horiz-adv-x="942" >
<font-face units-per-em="2048" ascent="1638" descent="-410" />
<missing-glyph horiz-adv-x="471" />
<glyph horiz-adv-x="0" />
<glyph horiz-adv-x="682" />
<glyph unicode=" "  horiz-adv-x="471" />
<glyph unicode="&#x09;" horiz-adv-x="471" />
<glyph unicode="&#xa0;" horiz-adv-x="471" />
<glyph unicode="!" horiz-adv-x="471" d="M176 0v145h121v-145h-121zM193 336v989h86v-989h-86z" />
<glyph unicode="&#x22;" horiz-adv-x="696" d="M164 1325h100l-16 -444h-68zM432 1325h100l-16 -444h-67z" />
<glyph unicode="#" d="M23 412v80h190l57 325h-168v80h183l75 428h91l-76 -428h258l76 428h90l-76 -428h197v-80h-211l-58 -325h189v-80h-203l-72 -412h-90l72 412h-258l-72 -412h-90l72 412h-176zM303 492h258l57 325h-258z" />
<glyph unicode="$" d="M96 25l37 86q68 -26 100 -37t83.5 -21t107.5 -10v610q-43 16 -70.5 27t-65.5 30.5t-62.5 37.5t-51.5 45t-42.5 57t-25.5 70.5t-10 87.5q0 155 89 237t239 96v187h90v-182q137 -3 279 -52l-37 -86q-4 2 -25.5 11.5t-27 11.5t-25 9.5t-28.5 9.5t-27.5 7t-33 7t-34.5 4 t-41 2v-543q59 -22 98.5 -40t88 -50.5t77 -70t48.5 -94.5t20 -128q0 -87 -26 -155t-72.5 -111t-104.5 -68.5t-129 -36.5v-174h-90v168q-55 0 -115.5 9t-101.5 19t-111 30zM195 1008q0 -50 17 -89.5t51.5 -68t71 -48t89.5 -40.5v504q-106 -15 -167.5 -77t-61.5 -181zM514 55 q46 11 85.5 31.5t74 53.5t54.5 84.5t20 115.5q0 58 -17.5 103t-52.5 77.5t-73 54.5t-91 43v-563z" />
<glyph unicode="%" horiz-adv-x="1413" d="M121 995q0 351 239 351q65 0 111.5 -22t71 -53.5t38.5 -82.5t17.5 -92.5t3.5 -100.5q0 -41 -1.5 -72t-7 -71t-15.5 -69t-28.5 -59t-43.5 -48.5t-63 -30.5t-85 -12t-84 12t-61.5 31t-42 49t-27 58.5t-15 69t-6.5 70.5t-1 72zM190 995q0 -42 2 -74.5t7.5 -70.5t17 -65 t29.5 -51t46.5 -36t65.5 -12q48 0 82 18.5t52 45t28 71.5t12.5 82t2.5 92q0 44 -1.5 73t-6.5 67.5t-16.5 63t-30 48t-49 34.5t-71.5 11q-170 0 -170 -297zM285 0l741 1288h94l-741 -1288h-94zM811 342q0 350 240 350q47 0 84 -11t62 -29t43 -46.5t28 -56.5t15.5 -66.5t7 -69 t1.5 -71.5q0 -49 -2.5 -84.5t-10 -81.5t-24 -77.5t-42.5 -60.5t-67.5 -43.5t-96.5 -14.5q-47 0 -84 12t-61.5 31t-42.5 49t-27.5 59t-14.5 69t-6.5 70.5t-1.5 71.5zM881 342q0 -42 2 -74.5t7.5 -70.5t17 -65t29.5 -51t46.5 -36t65.5 -12q48 0 82 18.5t52 45t28 71.5t12 81.5 t2 92.5q0 38 -1 62.5t-4.5 59t-10 57t-19.5 47t-31 38.5t-45.5 23.5t-62.5 9.5q-170 0 -170 -297z" />
<glyph unicode="&#x26;" d="M94 346q0 265 254 385q-10 8 -41 29.5t-48.5 34.5t-44.5 39t-41.5 49.5t-26 58t-11.5 72.5q0 73 15.5 132t49.5 106.5t94 73.5t142 26q301 0 301 -314q0 -122 -63.5 -195.5t-220.5 -140.5q-51 -21 -86.5 -40t-72.5 -49t-59 -64.5t-36.5 -85t-14.5 -113.5q0 -54 17 -106.5 t52 -99t97.5 -75t143.5 -28.5q71 0 143 50t111 122v295h-228v67h311v-288q0 -53 3 -107.5t8 -111.5t6 -68h-68l-24 119q-96 -146 -262 -146q-180 0 -290 98t-110 275zM227 1016q0 -31 11 -61t24 -51t38.5 -45t40.5 -35.5t44 -32t35 -25.5q47 19 81.5 39t70.5 52t55.5 78.5 t19.5 104.5q0 121 -49 182.5t-168 61.5q-109 0 -156 -69.5t-47 -198.5z" />
<glyph unicode="'" horiz-adv-x="471" d="M186 1325h101l-17 -444h-67z" />
<glyph unicode="(" horiz-adv-x="522" d="M121 520q0 184 23.5 321.5t64.5 240t119 243.5h78q-108 -199 -147.5 -371t-39.5 -434q0 -229 39.5 -397.5t157.5 -384.5h-78q-128 222 -172.5 385t-44.5 397z" />
<glyph unicode=")" horiz-adv-x="522" d="M106 -262q118 216 157.5 384.5t39.5 397.5q0 262 -39 434t-147 371h78q78 -140 119 -243t64 -240.5t23 -321.5q0 -234 -44.5 -397t-172.5 -385h-78z" />
<glyph unicode="*" horiz-adv-x="757" d="M31 1036l32 97l273 -105l10 8l-14 289h98l-16 -293l10 -6l270 104l33 -96l-285 -69l-2 -11l185 -235l-78 -55l-160 245h-12l-162 -245l-80 57l186 233l-4 11z" />
<glyph unicode="+" d="M55 391v82h369v389h94v-389h369v-82h-369v-391h-94v391h-369z" />
<glyph unicode="," horiz-adv-x="471" d="M57 -211l123 365h113l-166 -365h-70z" />
<glyph unicode="-" horiz-adv-x="645" d="M61 475v82h523v-82h-523z" />
<glyph unicode="." horiz-adv-x="471" d="M178 0v141h115v-141h-115z" />
<glyph unicode="/" horiz-adv-x="471" d="M-29 -20l439 1368h90l-439 -1368h-90z" />
<glyph unicode="0" d="M76 631q0 66 3.5 122.5t14 123.5t27.5 120.5t47.5 105t70.5 86.5t99 56t131 21q61 0 112 -12.5t89 -33t68.5 -53.5t50.5 -67t34.5 -81.5t22.5 -89.5t13 -98t6 -99t1 -101t-1 -101.5t-5.5 -101.5t-12.5 -101.5t-22.5 -93.5t-35 -86t-51 -71t-68.5 -56.5t-89.5 -35 t-113.5 -13.5q-61 0 -112 13.5t-88.5 35.5t-67.5 57.5t-49.5 71.5t-34 87t-22 93.5t-11.5 101t-5 100.5t-1 100zM174 631q0 -71 2 -124t8.5 -118t19 -111t34 -92.5t52 -75.5t75.5 -47t102 -18q62 0 110.5 19.5t80 47t53.5 79t33 93t16.5 113t6.5 114.5t1 120 q0 72 -1.5 121.5t-8 113.5t-18.5 106.5t-34.5 87.5t-53.5 71.5t-77.5 43.5t-105.5 17q-54 0 -98.5 -19t-74.5 -49.5t-53 -76.5t-35.5 -93t-20.5 -106t-10.5 -109t-2.5 -108z" />
<glyph unicode="1" d="M227 997l283 246h86v-1245h-94v1122l-238 -209z" />
<glyph unicode="2" d="M68 82q36 38 110 109.5t138 132.5t138.5 143.5t127 153t88 148.5t35.5 142q0 146 -69.5 214.5t-213.5 68.5q-19 0 -36.5 -1t-36 -5t-31 -6t-33.5 -9.5t-29.5 -10.5t-32 -13.5t-29.5 -13t-34 -16t-33 -15.5l-37 86q168 78 336 78q176 0 276.5 -86.5t100.5 -261.5 q0 -73 -33.5 -155.5t-82.5 -153t-122.5 -152.5t-133.5 -139.5t-136.5 -130t-112.5 -109.5h649v-80h-727z" />
<glyph unicode="3" d="M68 18l36 86q13 -4 50.5 -18t51.5 -18t44.5 -11t61 -9.5t69.5 -2.5q59 0 110 13t97 41.5t73 83t27 130.5q0 73 -20.5 127.5t-54.5 88t-85.5 54t-107 28t-125.5 7.5v70q81 0 141.5 11.5t113 39.5t80 81.5t27.5 131.5q0 57 -13.5 100.5t-36 70t-56.5 43t-69.5 22.5t-80.5 6 q-46 0 -98 -15t-81.5 -28t-94.5 -45l-37 86q152 76 311 76q164 0 259.5 -77.5t95.5 -234.5q0 -71 -21.5 -127t-60 -91t-85.5 -55.5t-104 -27.5q59 -9 108.5 -30.5t95 -60t71.5 -103.5t26 -150q0 -74 -22 -132.5t-60 -97t-91 -64t-111.5 -36t-126.5 -10.5q-106 0 -162.5 8.5 t-144.5 38.5z" />
<glyph unicode="4" d="M78 436l549 807h78v-817h196v-76h-196v-350h-95v350h-495zM156 426h454v672z" />
<glyph unicode="5" d="M117 14l37 86q137 -55 278 -55q150 0 233 89t83 255q0 153 -71.5 239.5t-193.5 86.5q-100 0 -256 -78l-86 37v569h650v-74h-555v-432q21 4 63.5 18.5t86.5 23.5t95 9q180 0 270.5 -108t90.5 -295q0 -196 -108 -305t-304 -109q-101 0 -167 8.5t-146 34.5z" />
<glyph unicode="6" d="M92 580q0 100 17.5 197.5t55.5 186.5t91.5 156.5t131.5 107.5t171 40q117 0 238 -33l-37 -86q-6 2 -24.5 9t-24 9t-21 7t-23 7t-21.5 5.5t-24.5 4.5t-24.5 2t-28 1q-175 0 -283 -169t-108 -450q47 103 126 168.5t183 65.5q175 0 270 -112t95 -296q0 -112 -41 -208.5 t-126 -159t-198 -62.5q-97 0 -169 35t-114.5 91t-68.5 138.5t-34.5 163.5t-8.5 181zM197 504q0 -249 70 -354t222 -105q121 0 193 97.5t72 258.5q0 159 -63.5 246.5t-198.5 87.5q-64 0 -117.5 -24.5t-88.5 -64.5t-55 -73.5t-34 -68.5z" />
<glyph unicode="7" d="M80 1165v78h700l37 -86l-479 -1157h-111l506 1165h-653z" />
<glyph unicode="8" d="M74 297q0 131 81 221t220 137q-3 2 -25.5 12.5t-37.5 18t-41.5 24t-45 32t-40.5 39t-35.5 48t-23 57.5t-9.5 68q0 155 97 234.5t261 79.5q363 0 363 -312q0 -54 -22 -102.5t-54 -82t-71.5 -59.5t-71 -40t-56.5 -19q305 -105 305 -356q0 -81 -27.5 -142t-68 -95t-97.5 -55 t-106 -27.5t-104 -6.5q-52 0 -101 7.5t-103.5 29.5t-94.5 57t-66 95t-26 137zM168 297q0 -126 82 -190t215 -64q63 0 117 14t98 43t69 79.5t25 117.5q0 226 -303 319q-45 -13 -82 -27.5t-80 -41.5t-72.5 -59.5t-49 -82t-19.5 -108.5zM209 954q0 -51 26 -97.5t67 -79t83 -55 t82 -34.5q42 8 88.5 30.5t90 56t71.5 81.5t28 100q0 130 -71 185t-199 55q-266 0 -266 -242z" />
<glyph unicode="9" d="M90 838q0 112 41 208.5t126 159t198 62.5q97 0 169 -35t114.5 -91t68.5 -138.5t34.5 -163.5t8.5 -181t-17.5 -197.5t-55.5 -186.5t-91.5 -156.5t-131.5 -107.5t-171 -40q-117 0 -238 33l37 86q6 -2 24.5 -9t24 -9t21 -7t23 -7t21.5 -5.5t24.5 -4.5t24.5 -2t28 -1 q175 0 283 169t108 450q-47 -103 -126 -168.5t-183 -65.5q-175 0 -270 112t-95 296zM188 838q0 -159 64 -246.5t199 -87.5q64 0 117.5 24.5t88 64.5t54.5 73.5t34 68.5q0 249 -70 354t-222 105q-121 0 -193 -97.5t-72 -258.5z" />
<glyph unicode=":" horiz-adv-x="471" d="M178 0v141h115v-141h-115zM178 784v142h115v-142h-115z" />
<glyph unicode=";" horiz-adv-x="471" d="M57 -211l113 365h123l-166 -365h-70zM170 784v142h115v-142h-115z" />
<glyph unicode="&#x3c;" d="M61 391v119l820 367v-101l-731 -327l731 -324v-100z" />
<glyph unicode="=" d="M61 229v88h820v-88h-820zM61 582v90h820v-90h-820z" />
<glyph unicode="&#x3e;" d="M61 25v100l732 328l-732 323v101l820 -367v-119z" />
<glyph unicode="?" horiz-adv-x="788" d="M104 1284q176 62 279 62q161 0 251.5 -70t90.5 -232q0 -49 -18 -93t-47 -77t-64 -64t-70 -61.5t-64 -62.5t-47 -73.5t-18 -88.5v-200h-94v211q0 57 18 105t47 82t64 64.5t70 58.5t64 56t47 64.5t18 78.5q0 121 -60.5 173.5t-187.5 52.5q-98 0 -242 -72zM291 0v145h121 v-145h-121z" />
<glyph unicode="@" horiz-adv-x="1658" d="M170 655q0 160 54 290.5t150 218t228 135t287 47.5q93 0 180 -22.5t163.5 -69t133.5 -112.5t90 -158.5t33 -201.5q0 -130 -43.5 -231.5t-121.5 -165.5t-183 -96.5t-232 -32.5q-176 0 -293.5 105t-117.5 292q0 163 108.5 279.5t274.5 116.5q71 0 151 -31v-438l86 14 l31 -74l-193 -31v482q-30 10 -73 10q-136 0 -215.5 -87.5t-79.5 -234.5q0 -164 86.5 -249.5t238.5 -85.5q226 0 356 114t130 342q0 125 -41 222.5t-112.5 156.5t-162 89t-194.5 30q-137 0 -251.5 -40t-199 -116.5t-131.5 -196t-47 -270.5q0 -153 46.5 -272t130 -194.5 t196 -114.5t248.5 -39q129 0 219.5 16t214.5 62l31 -74q-190 -72 -472 -72q-327 0 -515.5 184t-188.5 504z" />
<glyph unicode="A" horiz-adv-x="1245" d="M72 0l538 1325h64l500 -1325h-107l-154 416h-581l-164 -416h-96zM360 487h529l-252 699z" />
<glyph unicode="B" horiz-adv-x="1140" d="M205 0v1325h305q85 0 148.5 -7.5t122 -29.5t95 -59t58.5 -97.5t22 -144.5q0 -101 -57.5 -178t-153.5 -115q128 -30 200.5 -111t72.5 -212q0 -110 -33 -185t-96 -114.5t-137 -55.5t-174 -16h-373zM299 76h266q57 0 100 4t85 15.5t71 32.5t52 53t34 79.5t11 110.5 q0 85 -28.5 141.5t-84 84.5t-116 38t-146.5 10h-244v-569zM299 719h240q68 0 124 14.5t100.5 45t69.5 83t25 123.5q0 69 -15 117t-40.5 76.5t-71.5 44.5t-96 21t-125 5h-211v-530z" />
<glyph unicode="C" horiz-adv-x="1079" d="M133 662q0 116 16 213.5t55 186t99 150.5t153.5 98t213.5 36q164 0 309 -48l-37 -86q-135 58 -272 58q-102 0 -180.5 -34t-126.5 -90t-78.5 -136.5t-42 -164t-11.5 -181.5q0 -103 12 -190.5t42.5 -168.5t78 -137.5t122 -90.5t171.5 -34q131 0 299 68l37 -86 q-166 -58 -336 -58q-113 0 -202 34.5t-149 96t-99 149.5t-56.5 190.5t-17.5 224.5z" />
<glyph unicode="D" horiz-adv-x="1239" d="M205 0v1325h268q179 0 298.5 -35.5t195 -115.5t107.5 -202t32 -304q0 -358 -146 -513t-487 -155h-268zM299 76h193q268 0 392 148.5t124 441.5q0 160 -25 266t-86.5 179t-164.5 105.5t-259 32.5h-174v-1173z" />
<glyph unicode="E" horiz-adv-x="1050" d="M205 0v1325h704v-76h-610v-526h567v-76h-567v-571h629v-76h-723z" />
<glyph unicode="F" horiz-adv-x="1028" d="M205 0v1325h704v-78h-610v-532h586v-74h-586v-641h-94z" />
<glyph unicode="G" horiz-adv-x="1179" d="M133 664q0 682 547 682q113 0 293 -48l-37 -86q-133 58 -254 58q-236 0 -343.5 -153.5t-107.5 -452.5q0 -103 11 -188t40.5 -167.5t77.5 -139.5t126.5 -91.5t181.5 -34.5q114 0 293 96v412h-293v76h379v-547q-85 -41 -131.5 -60.5t-115 -36t-138.5 -16.5q-122 0 -216 39 t-152 103t-95 156t-51.5 188.5t-14.5 210.5z" />
<glyph unicode="H" horiz-adv-x="1277" d="M205 0v1325h94v-602h680v602h94v-1325h-94v645h-680v-645h-94z" />
<glyph unicode="I" horiz-adv-x="454" d="M180 0v1325h94v-1325h-94z" />
<glyph unicode="J" horiz-adv-x="768" d="M41 0q16 3 49 9q143 27 207 58q153 76 170 275q2 27 2 55v928h94v-907q0 -84 -17 -153t-39.5 -116t-66 -85.5t-75.5 -59.5t-91 -41t-88 -27t-90 -20q-19 -4 -28 -6z" />
<glyph unicode="K" horiz-adv-x="1132" d="M205 0v1325h94v-625l637 625h100l-647 -631l709 -694h-127l-672 657v-657h-94z" />
<glyph unicode="L" horiz-adv-x="950" d="M205 0v1325h94v-1243h633v-82h-727z" />
<glyph unicode="M" horiz-adv-x="1624" d="M205 0v1325h129l483 -1186l483 1186h119v-1325h-90v1223l-491 -1223h-52l-499 1223v-1223h-82z" />
<glyph unicode="N" horiz-adv-x="1325" d="M205 0v1325h127l698 -1214v1214h90v-1325h-131l-702 1214v-1214h-82z" />
<glyph unicode="O" horiz-adv-x="1345" d="M133 657q0 121 17.5 222.5t58.5 189.5t103 148t155 94.5t211 34.5q122 0 215 -34.5t153 -94.5t97.5 -148.5t53 -188.5t15.5 -223q0 -122 -17 -223t-57 -189t-101 -148.5t-152.5 -95t-208.5 -34.5q-123 0 -217.5 34.5t-155.5 94.5t-99.5 149t-54.5 189t-16 223zM231 657 q0 -109 12 -196.5t43.5 -167.5t81 -133.5t127.5 -85t181 -31.5t180.5 31.5t126 85t78.5 133.5t41.5 167.5t11.5 196.5q0 112 -11.5 200t-41.5 167.5t-78.5 132t-126 83t-180.5 30.5t-181 -30.5t-128 -83.5t-80.5 -132t-43 -167.5t-12.5 -199.5z" />
<glyph unicode="P" horiz-adv-x="1089" d="M205 0v1325h342q210 0 319 -87t109 -280t-102 -285.5t-304 -92.5h-270v-580h-94zM299 655h254q169 0 246.5 65.5t77.5 237.5q0 163 -81.5 227t-252.5 64h-244v-594z" />
<glyph unicode="Q" horiz-adv-x="1345" d="M133 657q0 121 17.5 222.5t58.5 189.5t103 148t155 94.5t211 34.5q122 0 215 -34.5t153 -94.5t97.5 -148.5t53 -188.5t15.5 -223q0 -122 -17 -223t-57 -189t-101 -148.5t-152.5 -95t-208.5 -34.5q-123 0 -217.5 34.5t-155.5 94.5t-99.5 149t-54.5 189t-16 223zM231 657 q0 -109 12 -196.5t43.5 -167.5t81 -133.5t127.5 -85t181 -31.5t180.5 31.5t126 85t78.5 133.5t41.5 167.5t11.5 196.5q0 112 -11.5 200t-41.5 167.5t-78.5 132t-126 83t-180.5 30.5t-181 -30.5t-128 -83.5t-80.5 -132t-43 -167.5t-12.5 -199.5zM643 -137l37 61l422 -35 l-37 -88z" />
<glyph unicode="R" horiz-adv-x="1142" d="M205 0v1325h373q83 0 153 -18t129 -56t92 -106.5t33 -161.5q0 -63 -12 -116t-41 -100.5t-73.5 -80.5t-113.5 -52.5t-157 -19.5l461 -614h-115l-455 612h-180v-612h-94zM299 688h291q162 0 229.5 79t67.5 216q0 133 -77 199.5t-222 66.5h-289v-561z" />
<glyph unicode="S" horiz-adv-x="1077" d="M143 25l37 86q180 -68 301 -68q50 0 95.5 7.5t93 28t82 52t56 84t21.5 119.5q0 41 -10 76t-25 61t-42.5 50.5t-51.5 40t-63 33.5t-66.5 28t-72.5 26q-53 18 -88 32.5t-81 37.5t-75.5 49t-57 61t-40.5 81t-13 102q0 89 33.5 155t94 104t137.5 56.5t172 18.5q136 0 307 -58 l-37 -86q-52 22 -81.5 33.5t-86 23t-115.5 11.5q-325 0 -325 -258q0 -46 16.5 -84t41 -63.5t67 -49.5t78 -38.5t90.5 -33.5q52 -18 82 -29.5t77.5 -33.5t75.5 -41.5t62 -51t52 -65.5t31 -81.5t13 -102.5q0 -103 -35 -177t-99 -115t-141.5 -60t-173.5 -19q-125 0 -336 58z " />
<glyph unicode="T" horiz-adv-x="1019" d="M57 1247v78h906v-78h-406v-1247h-94v1247h-406z" />
<glyph unicode="U" horiz-adv-x="1341" d="M205 489v836h94v-815q0 -181 37.5 -281.5t119.5 -143t228 -42.5q197 0 277.5 105.5t80.5 361.5v815h95v-840q0 -266 -108.5 -392t-344.5 -126q-259 0 -369 125.5t-110 396.5z" />
<glyph unicode="V" horiz-adv-x="1187" d="M63 1325h105l440 -1182l418 1182h98l-481 -1325h-78z" />
<glyph unicode="W" horiz-adv-x="1708" d="M76 1325h98l313 -1186l324 1131h98l320 -1135l315 1190h88l-360 -1325h-98l-320 1118l-324 -1118h-102z" />
<glyph unicode="X" horiz-adv-x="1128" d="M68 0l442 684l-387 641h110l336 -559l351 559h102l-408 -627l435 -698h-119l-369 616l-391 -616h-102z" />
<glyph unicode="Y" horiz-adv-x="1089" d="M35 1325h106l420 -645l400 645h94l-451 -729v-596h-94v588z" />
<glyph unicode="Z" horiz-adv-x="1079" d="M94 86l789 1161h-713v78h778l37 -86l-790 -1161h774v-78h-838z" />
<glyph unicode="[" horiz-adv-x="522" d="M172 -260v1644h256v-69h-162v-1499h162v-76h-256z" />
<glyph unicode="\" horiz-adv-x="471" d="M-29 1348h90l439 -1368h-90z" />
<glyph unicode="]" horiz-adv-x="522" d="M94 -180h162v1499h-162v70h256v-1645h-256v76z" />
<glyph unicode="^" d="M76 551l370 774h48l378 -774h-104l-297 618l-299 -618h-96z" />
<glyph unicode="_" horiz-adv-x="1024" d="M-2 -127h1028v-68h-1028v68z" />
<glyph unicode="`" horiz-adv-x="385" d="M39 1325h111l196 -240h-80z" />
<glyph unicode="a" horiz-adv-x="935" d="M100 246q0 60 13.5 106t47 86t89 66t142.5 40.5t204 14.5h96v86q0 120 -51 182t-164 62q-88 0 -156.5 -20.5t-148.5 -59.5l-31 74q93 36 166.5 54.5t167.5 18.5q142 0 221.5 -75.5t79.5 -225.5v-368q0 -26 2.5 -61.5t5.5 -63t8.5 -80t8.5 -82.5h-68q-1 11 -16 56.5 t-17 62.5q-37 -62 -108 -100.5t-164 -38.5q-64 0 -121 15.5t-104 46.5t-75 83.5t-28 120.5zM190 248q0 -92 62 -146.5t176 -54.5q90 0 161 41t105 109v292h-69q-166 0 -261 -25t-134.5 -76.5t-39.5 -139.5z" />
<glyph unicode="b" horiz-adv-x="964" d="M131 0q16 159 16 287v1059h84v-558q35 63 110.5 115.5t170.5 52.5q93 0 162.5 -38.5t110 -106.5t60 -152.5t19.5 -185.5q0 -83 -12 -154.5t-39 -134.5t-68.5 -107.5t-103 -70.5t-139.5 -26q-82 0 -159.5 40.5t-117.5 98.5l-26 -119h-68zM227 203q46 -75 112 -115.5 t142 -40.5q293 0 293 422q0 213 -72 316.5t-196 103.5q-51 0 -96.5 -18t-74.5 -42.5t-53.5 -56.5t-36 -53.5t-18.5 -40.5v-475z" />
<glyph unicode="c" horiz-adv-x="849" d="M100 461q0 495 396 495q58 0 134 -18t134 -41l-31 -74q-56 28 -122.5 47t-116.5 19q-304 0 -304 -428q0 -414 302 -414q49 0 118 18t127 48l31 -74q-51 -25 -136 -42t-143 -17q-199 0 -294 127.5t-95 353.5z" />
<glyph unicode="d" horiz-adv-x="964" d="M100 473q0 135 39.5 242.5t122.5 174t197 66.5q98 0 167.5 -51t106.5 -117v558h84v-1059q0 -118 17 -287h-68l-27 119q-40 -58 -115.5 -98.5t-156.5 -40.5h-4q-97 1 -169 40t-113.5 108t-61 154.5t-19.5 190.5zM190 469q0 -422 293 -422q76 0 142 40.5t112 115.5v475 q-10 28 -27 57.5t-48.5 67.5t-82.5 62t-112 24q-129 0 -203 -105.5t-74 -314.5z" />
<glyph unicode="e" horiz-adv-x="944" d="M100 459q0 69 10.5 135t37.5 133t67.5 117t106 81t147.5 31q88 0 154.5 -26.5t106.5 -71t65 -111.5t34 -137.5t9 -160.5h-645q0 -402 296 -402q76 0 142.5 21t146.5 63l25 -76q-156 -75 -330 -75q-99 0 -172.5 37.5t-116.5 105t-63.5 151.5t-20.5 185zM190 516h566 q0 188 -68 280.5t-219 92.5q-131 0 -200.5 -99t-78.5 -274z" />
<glyph unicode="f" horiz-adv-x="481" d="M31 868v68h155v131q0 138 80.5 217.5t235.5 91.5l20 -73q-78 -7 -129.5 -26.5t-77.5 -51.5t-35.5 -67t-9.5 -85v-137h193v-68h-193v-868h-84v868h-155z" />
<glyph unicode="g" horiz-adv-x="964" d="M80 -147q0 80 65 133.5t140 70.5q-131 54 -131 148q0 32 15 61.5t26 41.5t41 42q-2 2 -12 13t-14.5 16.5t-15 19t-16.5 24.5t-15.5 27.5t-14.5 33t-10.5 37t-8 44t-2.5 49.5q0 37 8.5 78t32.5 89.5t61 86t101.5 63t146.5 25.5q102 0 156 -26q250 20 256 20l-31 -73h-143 q47 -33 83 -103t36 -153q0 -71 -19 -132.5t-59 -113t-110.5 -81.5t-164.5 -30q-46 0 -106.5 15t-85.5 32q-53 -57 -53 -100q0 -32 19 -51t80 -36t179 -30q112 -12 190.5 -35t119.5 -55.5t58 -66.5t17 -76q0 -86 -55.5 -147t-145.5 -89t-204 -28q-219 0 -316.5 66t-97.5 190z M170 -147q0 -189 324 -189q158 0 236.5 53.5t78.5 143.5q0 83 -97 116.5t-347 55.5q-93 -19 -144 -70.5t-51 -109.5zM217 610q0 -123 65 -200.5t201 -77.5t198 78t62 206q0 131 -68 202t-194 71q-72 0 -125.5 -24.5t-82.5 -66t-42.5 -88.5t-13.5 -100z" />
<glyph unicode="h" horiz-adv-x="960" d="M147 0v1346h84v-558q35 67 112 117.5t165 50.5q86 0 148 -29t95 -80t47.5 -110t14.5 -131v-606h-84v561q0 79 -9.5 134.5t-34.5 101.5t-72.5 69t-118.5 23q-51 0 -99.5 -22.5t-81.5 -56.5t-55 -68.5t-29 -63.5v-678h-82z" />
<glyph unicode="i" horiz-adv-x="385" d="M143 1186v139h99v-139h-99zM152 0v936h84v-936h-84z" />
<glyph unicode="j" horiz-adv-x="374" d="M-49 -211q107 23 148.5 68.5t41.5 136.5v942h84v-924q0 -123 -57.5 -193.5t-192.5 -105.5zM133 1186v139h98v-139h-98z" />
<glyph unicode="k" horiz-adv-x="856" d="M147 0v1346h84v-803l443 393h96l-467 -406l516 -530h-106l-482 500v-500h-84z" />
<glyph unicode="l" horiz-adv-x="378" d="M147 0v1346h84v-1346h-84z" />
<glyph unicode="m" horiz-adv-x="1536" d="M131 936h68l28 -148q21 31 41 54t54 52.5t79.5 45.5t98.5 16q116 0 184 -57.5t96 -148.5q20 32 36.5 55t44.5 54t56.5 50t69 33t84.5 14q158 0 238 -87t80 -271v-598h-84v594q0 47 -4.5 84.5t-19.5 78.5t-40.5 68.5t-71 45.5t-106.5 18q-85 0 -156.5 -68t-101.5 -151 v-670h-84v594q0 137 -60 216t-174 79q-86 0 -157 -65t-99 -144v-680h-84v721q0 35 -2.5 69.5t-7 81t-6.5 64.5z" />
<glyph unicode="n" horiz-adv-x="960" d="M131 936h68l26 -148q1 1 15 19.5t20 26t24 26.5t31 29t35.5 25t44 22.5t50.5 13.5t59 6q166 0 237.5 -96.5t71.5 -269.5v-590h-84v573q0 56 -5 98.5t-19.5 85.5t-40 70.5t-69 44.5t-103.5 17q-92 0 -163.5 -66.5t-97.5 -142.5v-680h-84v737q0 43 -7 105.5t-9 93.5z" />
<glyph unicode="o" horiz-adv-x="976" d="M100 473q0 102 19.5 185t62.5 152t121 107.5t186 38.5q388 0 388 -483q0 -493 -388 -493q-389 0 -389 493zM190 473q0 -92 13.5 -164t45.5 -133.5t92.5 -95t147.5 -33.5q72 0 126 23t86 60.5t51.5 94.5t26.5 115.5t7 132.5q0 92 -13.5 162.5t-45.5 130t-92 91.5t-146 32 q-65 0 -116.5 -21.5t-85.5 -59t-56 -90.5t-31.5 -113.5t-9.5 -131.5z" />
<glyph unicode="p" horiz-adv-x="964" d="M131 936h68l30 -150q42 70 112.5 120t164.5 50q79 0 141.5 -26t102.5 -71t66 -109t37 -134.5t11 -152.5q0 -135 -38 -242t-119 -174t-195 -67q-95 0 -167.5 38.5t-113.5 96.5v-484h-84v1028q0 149 -16 277zM229 199q3 -4 23.5 -28t30.5 -34.5t35.5 -31.5t48 -31t58 -18.5 t75.5 -8.5q126 0 200 106t74 314q0 422 -285 422q-90 0 -163 -66t-97 -145v-479z" />
<glyph unicode="q" horiz-adv-x="964" d="M100 463q0 102 21 189t64 156t114 108.5t164 39.5q84 0 158 -51.5t114 -118.5l31 150h68q-17 -136 -17 -277v-1028h-84v484q-42 -58 -113.5 -96.5t-166.5 -38.5q-117 0 -198.5 67.5t-118 174t-36.5 241.5zM190 467q0 -208 74.5 -314t200.5 -106q42 0 78 8.5t59 19 t46.5 30t35 32t28.5 34t23 28.5v479q-24 79 -98 145t-164 66q-142 0 -212.5 -116t-70.5 -306z" />
<glyph unicode="r" horiz-adv-x="655" d="M131 936h68l26 -176q20 38 36.5 63.5t46.5 60.5t69 53.5t84 18.5q92 0 168 -45l-31 -73q-68 51 -152 51q-29 0 -56 -14t-46 -32t-39.5 -49t-30.5 -50.5t-25 -51t-18 -37.5v-655h-84v727q0 41 -3 80t-7.5 78.5t-5.5 50.5z" />
<glyph unicode="s" horiz-adv-x="811" d="M90 702q0 89 46.5 147t120.5 82.5t173 24.5q56 0 112 -14t152 -47l-30 -74q-7 3 -40.5 18t-41 18t-34 12t-42 11.5t-41 5.5t-53.5 3q-102 0 -167 -42.5t-65 -137.5q0 -30 12.5 -54.5t29 -40.5t49 -31.5t57 -24t67.5 -21.5q134 -40 184 -68q129 -77 132 -219 q0 -129 -90 -199.5t-228 -70.5q-187 0 -301 57l31 74q93 -40 143 -52t135 -12q100 0 160 52t60 149q0 24 -4.5 44.5t-16 37.5t-22.5 30t-32 25.5t-35 20t-42.5 17.5t-43.5 15t-48 15q-53 16 -85.5 27.5t-75.5 33.5t-67 45.5t-41.5 60.5t-17.5 82z" />
<glyph unicode="t" horiz-adv-x="538" d="M31 868v68h141v233h84v-233h213v-68h-213v-643q0 -101 59 -156.5t193 -78.5l-23 -78q-158 30 -235.5 106t-77.5 207v643h-141z" />
<glyph unicode="u" horiz-adv-x="946" d="M147 346v590h84v-574q0 -56 4.5 -98.5t19.5 -85t39.5 -70t67.5 -44.5t101 -17q91 0 158 65.5t94 143.5v680h84v-737q0 -43 7 -105.5t9 -93.5h-67l-27 147q-1 -1 -20 -27t-29 -37.5t-36 -35t-50.5 -35.5t-63.5 -22t-82 -10q-158 0 -225.5 96t-67.5 270z" />
<glyph unicode="v" horiz-adv-x="952" d="M86 936h90l307 -811l301 811h82l-358 -936h-59z" />
<glyph unicode="w" horiz-adv-x="1368" d="M86 936h88l246 -825l227 731h70l209 -725l276 819h80l-324 -936h-77l-207 702l-219 -702h-82z" />
<glyph unicode="x" horiz-adv-x="876" d="M53 0l336 473l-313 463h108l262 -391l269 391h92l-318 -449l334 -487h-112l-273 416l-291 -416h-94z" />
<glyph unicode="y" horiz-adv-x="950" d="M86 936l90 2l328 -803l278 801h82l-391 -1086q-38 -104 -87.5 -151t-162.5 -88l-24 78q146 40 180 133l82 217z" />
<glyph unicode="z" horiz-adv-x="802" d="M86 74l541 794h-500v68h559l31 -74l-539 -794h518v-68h-579z" />
<glyph unicode="{" horiz-adv-x="696" d="M98 506v76q49 2 80.5 27.5t45 68t20 97.5t11 115t12 120.5t29 116t56.5 98.5t100 70t154 30v-76q-95 0 -155 -32.5t-84 -86t-33.5 -120t-12 -138t-10.5 -135.5t-38.5 -117.5t-86.5 -78.5q58 -21 89.5 -71.5t40.5 -114t12 -136t12.5 -140t33 -123t81.5 -89t151 -33.5v-76 q-88 2 -151.5 28.5t-98 69t-55 97.5t-28.5 115.5t-12.5 121t-11.5 115.5t-21.5 98.5t-46.5 71t-83 31.5z" />
<glyph unicode="|" horiz-adv-x="471" d="M195 -340v1778h81v-1778h-81z" />
<glyph unicode="}" horiz-adv-x="696" d="M90 -166q93 0 151 33.5t81.5 89t33 123t12.5 140t12 136t40.5 114t89.5 71.5q-56 25 -86.5 78.5t-38.5 117.5t-10.5 135.5t-12 138t-33.5 120t-84 86t-155 32.5v76q89 -3 154 -30t100 -70t56.5 -98.5t29 -116t12 -120.5t11 -115t20 -97.5t45 -68t80.5 -27.5v-76 q-51 -4 -83 -31.5t-46.5 -71t-21.5 -98.5t-11.5 -115.5t-12.5 -121t-28.5 -115.5t-55 -97.5t-98 -69t-151.5 -28.5v76z" />
<glyph unicode="~" d="M49 358q0 97 62.5 146t154.5 49q47 0 104 -23t101 -50.5t99.5 -50.5t99.5 -23q66 0 104.5 39t38.5 102l80 -37q0 -94 -67 -144.5t-154 -50.5q-52 0 -111.5 23.5t-104 51.5t-97.5 51.5t-93 23.5q-67 0 -102 -37t-35 -106z" />
<glyph unicode="&#xa1;" horiz-adv-x="471" d="M176 1180v145h121v-145h-121zM195 0v989h86v-989h-86z" />
<glyph unicode="&#xa2;" horiz-adv-x="829" d="M100 461q0 458 338 493v187h80v-185q93 -5 225 -59l-30 -74q-110 56 -195 64v-838q89 9 199 64l31 -74q-93 -46 -230 -57v-185h-80v185q-173 17 -255.5 142.5t-82.5 336.5zM190 461q0 -376 248 -410v834q-248 -38 -248 -424z" />
<glyph unicode="&#xa3;" d="M100 0v80h144v631h-144v80h144v73q0 84 17 153t39.5 116t66 85.5t75.5 59.5t91 41t88 27t90 20q19 4 28 6l27 -90q-16 -3 -49 -9q-143 -27 -207 -58q-153 -76 -170 -275q-2 -27 -2 -55v-94h381v-80h-381v-629h553v-82h-791z" />
<glyph unicode="&#xa4;" d="M0 508l20 76h166q-2 25 -2 78q0 63 2 94h-186l20 75h175q14 113 48 203.5t91.5 162t146 110.5t203.5 39q146 0 309 -56l-24 -92q-148 72 -285 72q-78 0 -140.5 -23t-104.5 -62t-72 -96.5t-47 -119.5t-27 -138h581l-20 -75h-569q-2 -31 -2 -92q0 -53 2 -80h524l-21 -76 h-497q9 -82 24.5 -148t44.5 -126.5t70 -101.5t102 -65t138 -24q67 0 126 17t154 55v-101q-86 -26 -142.5 -36.5t-137.5 -10.5q-417 0 -477 541h-193z" />
<glyph unicode="&#xa5;" d="M18 1325h107l362 -635l342 635h95l-383 -709h309v-79h-320v-166h320v-80h-320v-291h-94v291h-315v80h315v166h-315v79h301z" />
<glyph unicode="&#xa6;" horiz-adv-x="471" d="M188 -160v479h95v-479h-95zM188 735v479h95v-479h-95z" />
<glyph unicode="&#xa7;" d="M147 676q0 167 150 227q-54 28 -85.5 75t-31.5 109q0 66 27 117.5t73 81.5t101.5 45t118.5 15q115 0 254 -66l-31 -80q-67 40 -111 56t-110 16q-102 0 -165 -41.5t-63 -136.5q0 -39 22.5 -68t59 -45.5t83.5 -33t95.5 -29t95.5 -35t83.5 -50t59 -74.5t22.5 -108 q0 -73 -43.5 -128.5t-110.5 -78.5q121 -66 121 -206q0 -128 -91.5 -199.5t-226.5 -71.5q-160 0 -284 58l30 79q88 -37 136 -50t123 -13q101 0 160 49t59 146q0 56 -28.5 95.5t-74.5 62t-101.5 39.5t-111.5 35t-102 41.5t-74.5 65.5t-28.5 101zM242 682q0 -30 14 -54 t34 -39.5t53.5 -29.5t62.5 -22.5t71.5 -21.5t69.5 -23q153 42 153 157q0 37 -12.5 65.5t-30.5 46t-50.5 32.5t-58.5 23t-70.5 20.5t-71.5 21.5q-164 -20 -164 -176z" />
<glyph unicode="&#xa8;" horiz-adv-x="385" d="M-6 1196v129h96v-129h-96zM295 1196v129h96v-129h-96z" />
<glyph unicode="&#xa9;" horiz-adv-x="1474" d="M51 664q0 142 53.5 269t145.5 218t219 144t268 53q144 0 271 -52.5t218 -143t144 -217.5t53 -271q0 -142 -53.5 -269t-145.5 -218t-219 -144t-268 -53t-268 53t-219 144t-145.5 218t-53.5 269zM131 664q0 -124 48 -238t128.5 -197t193 -132.5t236.5 -49.5t236.5 49.5 t193 132.5t128.5 197t48 238q0 167 -79.5 308.5t-219 224.5t-307.5 83q-127 0 -239.5 -48.5t-193 -131.5t-127 -196.5t-46.5 -239.5zM383 659q0 86 18.5 157.5t58 129.5t108.5 90.5t163 32.5q92 0 201 -33l-25 -65q-98 41 -176 41q-274 0 -274 -350q0 -361 266 -361 q73 0 195 47l22 -65q-119 -39 -217 -39q-173 0 -256.5 112.5t-83.5 302.5z" />
<glyph unicode="&#xaa;" d="M256 936q0 86 66 132t233 46h57v35q0 65 -30 96t-99 31q-93 0 -184 -43l-18 53q115 39 200 39q87 0 139 -41t52 -123v-203q0 -25 16 -157h-51q-1 5 -10.5 29t-10.5 34q-51 -76 -163 -76q-82 0 -139.5 37t-57.5 111zM324 936q0 -98 129 -98q52 0 95 25t64 63v137h-41 q-138 0 -192.5 -28t-54.5 -99z" />
<glyph unicode="&#xab;" horiz-adv-x="696" d="M78 553l190 373h90l-198 -369l196 -369h-88zM344 553l191 373h90l-199 -369l197 -369h-88z" />
<glyph unicode="&#xac;" d="M31 612v80h870v-450h-94v370h-776z" />
<glyph unicode="&#xad;" horiz-adv-x="645" d="M61 475v82h523v-82h-523z" />
<glyph unicode="&#xae;" horiz-adv-x="1474" d="M51 664q0 142 53.5 269t145.5 218t219 144t268 53q144 0 271 -52.5t218 -143t144 -217.5t53 -271q0 -142 -53.5 -269t-145.5 -218t-219 -144t-268 -53t-268 53t-219 144t-145.5 218t-53.5 269zM131 664q0 -124 48 -238t128.5 -197t193 -132.5t236.5 -49.5t236.5 49.5 t193 132.5t128.5 197t48 238q0 167 -79.5 308.5t-219 224.5t-307.5 83q-127 0 -239.5 -48.5t-193 -131.5t-127 -196.5t-46.5 -239.5zM500 264v797h241q114 0 189.5 -50.5t75.5 -156.5q0 -99 -60.5 -162t-197.5 -63l299 -365h-86l-295 365h-97v-365h-69zM569 686h181 q102 0 142 45t40 123q0 77 -44 112t-140 35h-179v-315z" />
<glyph unicode="&#xaf;" horiz-adv-x="385" d="M-31 1184v94h447v-94h-447z" />
<glyph unicode="&#xb0;" horiz-adv-x="757" d="M102 981q0 117 81.5 195.5t195.5 78.5t195 -78.5t81 -195.5q0 -116 -81.5 -192t-196.5 -76t-195 76t-80 192zM195 981q0 -74 54.5 -128t127.5 -54t128.5 54t55.5 128q0 82 -51.5 135t-130.5 53q-80 0 -132 -53t-52 -135z" />
<glyph unicode="&#xb1;" d="M55 514v82h369v266h94v-266h369v-82h-369v-268h-94v268h-369zM61 4v88h820v-88h-820z" />
<glyph unicode="&#xb2;" horiz-adv-x="645" d="M94 694q22 21 80.5 72t103.5 92.5t94.5 94t77 103.5t27.5 93q0 79 -40.5 111t-129.5 32q-78 0 -178 -49l-20 60q103 43 200 43q106 0 171 -51.5t65 -147.5q0 -48 -25 -99t-70.5 -100t-87.5 -87t-98.5 -85t-81.5 -71h371v-56h-436z" />
<glyph unicode="&#xb3;" horiz-adv-x="645" d="M102 657l23 60l30 -10t30.5 -9.5t27 -6.5t36 -5.5t42.5 -1.5q37 0 66 5t57.5 18.5t44.5 41.5t16 70q0 50 -17.5 83t-51.5 49.5t-73 23t-93 6.5v51q50 0 85 5.5t67 19.5t48.5 42.5t16.5 71.5q0 74 -39.5 97.5t-114.5 23.5q-28 0 -59.5 -8.5t-48.5 -15.5t-56 -25l-22 60 q91 43 186 43q99 0 161 -43.5t62 -128.5q0 -77 -44.5 -117.5t-116.5 -48.5q35 -5 65 -16.5t57 -33t42.5 -57t15.5 -82.5q0 -66 -38.5 -109.5t-94 -60t-125.5 -16.5q-68 0 -101 4t-84 20z" />
<glyph unicode="&#xb4;" horiz-adv-x="385" d="M39 1085l197 240h110l-227 -240h-80z" />
<glyph unicode="&#xb5;" d="M145 -369v1305h84v-574q0 -56 4.5 -98.5t19.5 -85t39.5 -70t67.5 -44.5t101 -17q48 0 91.5 23.5t75 60.5t52.5 73.5t33 71.5v660h84v-737q0 -43 7 -105.5t9 -93.5h-68l-26 147q-1 -1 -20 -27t-29 -37.5t-35 -35t-47.5 -35t-57 -22t-71.5 -10.5q-153 0 -230 86v-435h-84z " />
<glyph unicode="&#xb6;" horiz-adv-x="1105" d="M207 1001q0 47 8 88.5t32.5 86t63.5 76.5t107.5 52.5t159.5 20.5h378v-1710h-94v1630h-207q-99 0 -160 -58.5t-61 -174.5q0 -60 32.5 -107t75 -71.5t93.5 -38.5v-1180h-94v1077q-76 3 -135 23.5t-96 50.5t-60.5 70.5t-33 80.5t-9.5 84z" />
<glyph unicode="&#xb7;" horiz-adv-x="471" d="M164 516v154h143v-154h-143z" />
<glyph unicode="&#xb8;" horiz-adv-x="385" d="M10 -326l29 78q115 -14 133 -14q40 0 69 16.5t29 48.5q0 34 -32 50t-132 16l44 162h79l-20 -97q70 0 109.5 -38.5t39.5 -88.5q0 -149 -176 -149q-54 0 -172 16z" />
<glyph unicode="&#xb9;" horiz-adv-x="645" d="M164 1190l168 135h63v-684h-67v604l-144 -115z" />
<glyph unicode="&#xba;" d="M240 1079q0 119 54 193t179 74q232 0 232 -267q0 -270 -232 -270q-233 0 -233 270zM303 1079q0 -105 37.5 -163t132.5 -58q93 0 130.5 58t37.5 163t-37 161t-131 56q-170 0 -170 -217z" />
<glyph unicode="&#xbb;" horiz-adv-x="696" d="M72 926h90l190 -373l-190 -365h-88l196 369zM338 926h90l190 -373l-190 -365h-88l197 369z" />
<glyph unicode="&#xbc;" horiz-adv-x="1413" d="M133 1190l168 135h64v-684h-68v604l-143 -115zM207 0l745 1288h90l-751 -1288h-84zM700 240l330 444h57v-444h109v-54h-109v-186h-67v186h-295zM760 240h260v352z" />
<glyph unicode="&#xbd;" horiz-adv-x="1413" d="M133 1190l168 135h64v-684h-68v604l-143 -115zM207 0l741 1288h94l-741 -1288h-94zM805 57q24 23 81 71t103.5 89.5t95.5 92t77 100.5t28 92q0 79 -40.5 111t-129.5 32q-74 0 -178 -51l-21 61q98 41 201 41q106 0 170.5 -50t64.5 -146q0 -48 -25 -99t-70.5 -100.5 t-87 -88t-98.5 -86.5t-81 -71h371v-55h-437z" />
<glyph unicode="&#xbe;" horiz-adv-x="1413" d="M92 657l23 60l30 -10t30.5 -9.5t27 -6.5t36 -5.5t42.5 -1.5q37 0 66 5t57.5 18.5t44.5 41.5t16 70q0 40 -12.5 69.5t-32.5 47t-51.5 28t-64 14t-75.5 3.5v51q50 0 85 5.5t67 19.5t48.5 42.5t16.5 71.5q0 74 -39 97.5t-114 23.5q-28 0 -59.5 -8.5t-48.5 -15.5t-56 -25 l-23 60q91 43 187 43q99 0 161 -43.5t62 -128.5q0 -77 -45 -117.5t-117 -48.5q35 -5 65 -16.5t57.5 -33t43 -57t15.5 -82.5q0 -66 -38.5 -109.5t-94.5 -60t-126 -16.5q-68 0 -100.5 4t-83.5 20zM258 0l741 1288h95l-744 -1288h-92zM752 240l329 444h58v-444h108v-54h-108 v-186h-68v186h-295zM811 240h260v352z" />
<glyph unicode="&#xbf;" horiz-adv-x="788" d="M104 281q0 49 18 93t47 77t64 64t70 61.5t64 62.5t47 73.5t18 88.5v200h94v-210q0 -57 -18 -105t-47 -82.5t-63.5 -65t-69.5 -58t-64 -56t-47 -65t-18 -78.5q0 -122 60.5 -174t186.5 -52q98 0 242 72l37 -86q-173 -61 -279 -61q-162 0 -252 69.5t-90 231.5zM418 1180v145 h121v-145h-121z" />
<glyph unicode="&#xc0;" horiz-adv-x="1245" d="M72 0l538 1325h64l500 -1325h-107l-154 416h-581l-164 -416h-96zM360 487h529l-252 699zM508 1634h110l197 -239h-80z" />
<glyph unicode="&#xc1;" horiz-adv-x="1245" d="M72 0l538 1325h64l500 -1325h-107l-154 416h-581l-164 -416h-96zM360 487h529l-252 699zM481 1386l197 240h110l-227 -240h-80z" />
<glyph unicode="&#xc2;" horiz-adv-x="1245" d="M72 0l538 1325h64l500 -1325h-107l-154 416h-581l-164 -416h-96zM360 487h529l-252 699zM418 1438l172 219h98l168 -219h-82l-135 151l-139 -151h-82z" />
<glyph unicode="&#xc3;" horiz-adv-x="1245" d="M72 0l538 1325h64l500 -1325h-107l-154 416h-581l-164 -416h-96zM360 487h529l-252 699zM391 1438q33 74 66.5 100.5t97.5 26.5q31 0 95 -34t89 -34q58 0 84 80l72 -31q-44 -121 -152 -121q-29 0 -93.5 37t-96.5 37q-65 0 -90 -92z" />
<glyph unicode="&#xc4;" horiz-adv-x="1245" d="M72 0l538 1325h64l500 -1325h-107l-154 416h-581l-164 -416h-96zM360 487h529l-252 699zM442 1425v129h97v-129h-97zM743 1425v129h97v-129h-97z" />
<glyph unicode="&#xc5;" horiz-adv-x="1245" d="M72 0l538 1325h64l500 -1325h-107l-154 416h-581l-164 -416h-96zM360 487h529l-252 699zM469 1542q0 70 49.5 119t120.5 49q72 0 121 -48t49 -120q0 -70 -49.5 -119t-120.5 -49q-69 0 -119.5 49.5t-50.5 118.5zM532 1544q0 -39 31 -72.5t76 -33.5q51 0 77.5 30.5 t26.5 75.5t-28 76t-76 31q-46 0 -76.5 -32.5t-30.5 -74.5z" />
<glyph unicode="&#xc6;" horiz-adv-x="1751" d="M72 0l751 1325h787v-76h-703l101 -526h559v-76h-543l104 -571h500v-76h-588l-75 416h-557l-234 -416h-102zM444 487h506l-125 691z" />
<glyph unicode="&#xc7;" horiz-adv-x="1079" d="M133 662q0 116 16 213.5t55 186t99 150.5t153.5 98t213.5 36q164 0 309 -48l-37 -86q-135 58 -272 58q-102 0 -180.5 -34t-126.5 -90t-78.5 -136.5t-42 -164t-11.5 -181.5q0 -103 12 -190.5t42.5 -168.5t78 -137.5t122 -90.5t171.5 -34q131 0 299 68l37 -86 q-143 -52 -295 -58l-6 -33q70 0 110 -38.5t40 -88.5q0 -149 -176 -149q-54 0 -172 16l28 78q116 -14 133 -14q40 0 69.5 16.5t29.5 48.5q0 34 -32 50t-132 16l26 100q-129 7 -224 62t-150.5 150t-82 214t-26.5 267z" />
<glyph unicode="&#xc8;" horiz-adv-x="1050" d="M205 0v1325h704v-76h-610v-526h567v-76h-567v-571h629v-76h-723zM377 1636h110l197 -239h-80z" />
<glyph unicode="&#xc9;" horiz-adv-x="1050" d="M205 0v1325h704v-76h-610v-526h567v-76h-567v-571h629v-76h-723zM471 1386l197 240h110l-227 -240h-80z" />
<glyph unicode="&#xca;" horiz-adv-x="1050" d="M205 0v1325h704v-76h-610v-526h567v-76h-567v-571h629v-76h-723zM348 1407l172 219h98l168 -219h-81l-136 152l-139 -152h-82z" />
<glyph unicode="&#xcb;" horiz-adv-x="1050" d="M205 0v1325h704v-76h-610v-526h567v-76h-567v-571h629v-76h-723zM360 1425v129h97v-129h-97zM662 1425v129h96v-129h-96z" />
<glyph unicode="&#xcc;" horiz-adv-x="454" d="M76 1657h108l199 -240h-80zM184 0v1325h95v-1325h-95z" />
<glyph unicode="&#xcd;" horiz-adv-x="454" d="M78 1417l196 240h111l-227 -240h-80zM180 0v1325h94v-1325h-94z" />
<glyph unicode="&#xce;" horiz-adv-x="454" d="M8 1438l172 219h99l167 -219h-81l-136 151l-139 -151h-82zM180 0v1325h94v-1325h-94z" />
<glyph unicode="&#xcf;" horiz-adv-x="454" d="M29 1425v129h96v-129h-96zM182 0v1325h94v-1325h-94zM330 1425v129h96v-129h-96z" />
<glyph unicode="&#xd0;" horiz-adv-x="1239" d="M59 715v76h146v534h268q179 0 298.5 -35.5t195 -115.5t107.5 -202t32 -304q0 -358 -146 -513t-487 -155h-268v715h-146zM299 76h193q268 0 392 148.5t124 441.5q0 160 -25 266t-86.5 179t-164.5 105.5t-259 32.5h-174v-458h358v-76h-358v-639z" />
<glyph unicode="&#xd1;" horiz-adv-x="1325" d="M205 0v1325h127l698 -1214v1214h90v-1325h-131l-702 1214v-1214h-82zM375 1432q33 74 66.5 100.5t97.5 26.5q31 0 95 -34t89 -34q58 0 84 80l72 -31q-44 -121 -152 -121q-29 0 -93.5 37t-96.5 37q-37 0 -59 -28t-32 -64z" />
<glyph unicode="&#xd2;" horiz-adv-x="1345" d="M133 657q0 121 17.5 222.5t58.5 189.5t103 148t155 94.5t211 34.5q122 0 215 -34.5t153 -94.5t97.5 -148.5t53 -188.5t15.5 -223q0 -122 -17 -223t-57 -189t-101 -148.5t-152.5 -95t-208.5 -34.5q-123 0 -217.5 34.5t-155.5 94.5t-99.5 149t-54.5 189t-16 223zM231 657 q0 -109 12 -196.5t43.5 -167.5t81 -133.5t127.5 -85t181 -31.5t180.5 31.5t126 85t78.5 133.5t41.5 167.5t11.5 196.5q0 112 -11.5 200t-41.5 167.5t-78.5 132t-126 83t-180.5 30.5t-181 -30.5t-128 -83.5t-80.5 -132t-43 -167.5t-12.5 -199.5zM479 1636h111l196 -239h-79z " />
<glyph unicode="&#xd3;" horiz-adv-x="1345" d="M133 657q0 121 17.5 222.5t58.5 189.5t103 148t155 94.5t211 34.5q122 0 215 -34.5t153 -94.5t97.5 -148.5t53 -188.5t15.5 -223q0 -122 -17 -223t-57 -189t-101 -148.5t-152.5 -95t-208.5 -34.5q-123 0 -217.5 34.5t-155.5 94.5t-99.5 149t-54.5 189t-16 223zM231 657 q0 -109 12 -196.5t43.5 -167.5t81 -133.5t127.5 -85t181 -31.5t180.5 31.5t126 85t78.5 133.5t41.5 167.5t11.5 196.5q0 112 -11.5 200t-41.5 167.5t-78.5 132t-126 83t-180.5 30.5t-181 -30.5t-128 -83.5t-80.5 -132t-43 -167.5t-12.5 -199.5zM594 1386l197 240h110 l-227 -240h-80z" />
<glyph unicode="&#xd4;" horiz-adv-x="1345" d="M133 657q0 121 17.5 222.5t58.5 189.5t103 148t155 94.5t211 34.5q122 0 215 -34.5t153 -94.5t97.5 -148.5t53 -188.5t15.5 -223q0 -122 -17 -223t-57 -189t-101 -148.5t-152.5 -95t-208.5 -34.5q-123 0 -217.5 34.5t-155.5 94.5t-99.5 149t-54.5 189t-16 223zM231 657 q0 -109 12 -196.5t43.5 -167.5t81 -133.5t127.5 -85t181 -31.5t180.5 31.5t126 85t78.5 133.5t41.5 167.5t11.5 196.5q0 112 -11.5 200t-41.5 167.5t-78.5 132t-126 83t-180.5 30.5t-181 -30.5t-128 -83.5t-80.5 -132t-43 -167.5t-12.5 -199.5zM461 1407l172 219h98 l168 -219h-82l-135 152l-139 -152h-82z" />
<glyph unicode="&#xd5;" horiz-adv-x="1345" d="M133 657q0 121 17.5 222.5t58.5 189.5t103 148t155 94.5t211 34.5q122 0 215 -34.5t153 -94.5t97.5 -148.5t53 -188.5t15.5 -223q0 -122 -17 -223t-57 -189t-101 -148.5t-152.5 -95t-208.5 -34.5q-123 0 -217.5 34.5t-155.5 94.5t-99.5 149t-54.5 189t-16 223zM231 657 q0 -109 12 -196.5t43.5 -167.5t81 -133.5t127.5 -85t181 -31.5t180.5 31.5t126 85t78.5 133.5t41.5 167.5t11.5 196.5q0 112 -11.5 200t-41.5 167.5t-78.5 132t-126 83t-180.5 30.5t-181 -30.5t-128 -83.5t-80.5 -132t-43 -167.5t-12.5 -199.5zM416 1432q33 74 66.5 100.5 t97.5 26.5q32 0 95 -34t89 -34q58 0 84 80l72 -31q-44 -121 -152 -121q-29 0 -93.5 37t-96.5 37q-37 0 -59 -28t-32 -64z" />
<glyph unicode="&#xd6;" horiz-adv-x="1345" d="M133 657q0 121 17.5 222.5t58.5 189.5t103 148t155 94.5t211 34.5q122 0 215 -34.5t153 -94.5t97.5 -148.5t53 -188.5t15.5 -223q0 -122 -17 -223t-57 -189t-101 -148.5t-152.5 -95t-208.5 -34.5q-123 0 -217.5 34.5t-155.5 94.5t-99.5 149t-54.5 189t-16 223zM231 657 q0 -109 12 -196.5t43.5 -167.5t81 -133.5t127.5 -85t181 -31.5t180.5 31.5t126 85t78.5 133.5t41.5 167.5t11.5 196.5q0 112 -11.5 200t-41.5 167.5t-78.5 132t-126 83t-180.5 30.5t-181 -30.5t-128 -83.5t-80.5 -132t-43 -167.5t-12.5 -199.5zM477 1425v129h96v-129h-96z M778 1425v129h96v-129h-96z" />
<glyph unicode="&#xd7;" d="M104 131l306 303l-306 303l66 66l303 -305l303 305l66 -66l-305 -303l305 -303l-66 -65l-303 305l-303 -305z" />
<glyph unicode="&#xd8;" horiz-adv-x="1345" d="M33 -2l184 217q-84 164 -84 442q0 121 17.5 222.5t58.5 189.5t103 148t155 94.5t211 34.5q243 0 379 -142l166 197l63 -60l-176 -206q102 -167 102 -478q0 -122 -17 -223t-57 -189t-101 -148.5t-152.5 -95t-208.5 -34.5q-277 0 -410 172l-170 -200zM231 657 q0 -224 54 -362l714 842q-108 133 -323 133q-103 0 -181 -30.5t-128 -83.5t-80.5 -132t-43 -167.5t-12.5 -199.5zM328 211q110 -168 348 -168q103 0 180.5 31.5t126 85t78.5 133.5t41.5 167.5t11.5 196.5q0 263 -67 402z" />
<glyph unicode="&#xd9;" horiz-adv-x="1341" d="M205 489v836h94v-815q0 -181 37.5 -281.5t119.5 -143t228 -42.5q197 0 277.5 105.5t80.5 361.5v815h95v-840q0 -266 -108.5 -392t-344.5 -126q-259 0 -369 125.5t-110 396.5zM500 1636h110l197 -239h-80z" />
<glyph unicode="&#xda;" horiz-adv-x="1341" d="M205 489v836h94v-815q0 -181 37.5 -281.5t119.5 -143t228 -42.5q197 0 277.5 105.5t80.5 361.5v815h95v-840q0 -266 -108.5 -392t-344.5 -126q-259 0 -369 125.5t-110 396.5zM541 1393l196 239h111l-227 -239h-80z" />
<glyph unicode="&#xdb;" horiz-adv-x="1341" d="M205 489v836h94v-815q0 -181 37.5 -281.5t119.5 -143t228 -42.5q197 0 277.5 105.5t80.5 361.5v815h95v-840q0 -266 -108.5 -392t-344.5 -126q-259 0 -369 125.5t-110 396.5zM444 1407l172 219h99l168 -219h-82l-135 152l-140 -152h-82z" />
<glyph unicode="&#xdc;" horiz-adv-x="1341" d="M205 489v836h94v-815q0 -181 37.5 -281.5t119.5 -143t228 -42.5q197 0 277.5 105.5t80.5 361.5v815h95v-840q0 -266 -108.5 -392t-344.5 -126q-259 0 -369 125.5t-110 396.5zM483 1425v129h97v-129h-97zM784 1425v129h97v-129h-97z" />
<glyph unicode="&#xdd;" horiz-adv-x="1089" d="M35 1325h106l420 -645l400 645h94l-451 -729v-596h-94v588zM457 1417l196 240h111l-227 -240h-80z" />
<glyph unicode="&#xde;" d="M147 0v1329h95v-256h159q100 0 179.5 -20.5t140.5 -63.5t94 -115t33 -169q0 -104 -36.5 -181t-102.5 -121t-147.5 -65t-180.5 -21h-139v-317h-95zM242 403h127q42 0 78.5 3t77 11.5t72.5 22.5t62.5 37t50.5 54t32 75.5t12 98.5q0 288 -340 288h-172v-590z" />
<glyph unicode="&#xdf;" horiz-adv-x="966" d="M147 0v965q0 201 64 291t229 90q132 0 214.5 -75t82.5 -206q0 -157 -249 -326l-9 -6q36 -15 56.5 -24t66 -33t75 -45.5t68 -58t61.5 -74.5t39.5 -90.5t16.5 -110.5q0 -94 -26 -163t-66.5 -108.5t-102 -63t-120 -31t-133.5 -7.5l22 74q58 0 104 6.5t93 25.5t78.5 51.5 t51 88.5t19.5 131q0 64 -29 123.5t-71.5 101.5t-97 77.5t-99.5 55.5t-84 31v72q114 74 168 131q84 90 84 178q0 57 -20 99.5t-53 64.5t-68 32.5t-72 10.5q-120 0 -164.5 -62.5t-44.5 -228.5v-987h-84z" />
<glyph unicode="&#xe0;" horiz-adv-x="935" d="M100 246q0 60 13.5 106t47 86t89 66t142.5 40.5t204 14.5h96v86q0 120 -51 182t-164 62q-88 0 -156.5 -20.5t-148.5 -59.5l-31 74q93 36 166.5 54.5t167.5 18.5q142 0 221.5 -75.5t79.5 -225.5v-368q0 -26 2.5 -61.5t5.5 -63t8.5 -80t8.5 -82.5h-68q-1 11 -16 56.5 t-17 62.5q-37 -62 -108 -100.5t-164 -38.5q-64 0 -121 15.5t-104 46.5t-75 83.5t-28 120.5zM190 248q0 -92 62 -146.5t176 -54.5q90 0 161 41t105 109v292h-69q-166 0 -261 -25t-134.5 -76.5t-39.5 -139.5zM217 1325h111l196 -240h-80z" />
<glyph unicode="&#xe1;" horiz-adv-x="935" d="M100 246q0 60 13.5 106t47 86t89 66t142.5 40.5t204 14.5h96v86q0 120 -51 182t-164 62q-88 0 -156.5 -20.5t-148.5 -59.5l-31 74q93 36 166.5 54.5t167.5 18.5q142 0 221.5 -75.5t79.5 -225.5v-368q0 -26 2.5 -61.5t5.5 -63t8.5 -80t8.5 -82.5h-68q-1 11 -16 56.5 t-17 62.5q-37 -62 -108 -100.5t-164 -38.5q-64 0 -121 15.5t-104 46.5t-75 83.5t-28 120.5zM190 248q0 -92 62 -146.5t176 -54.5q90 0 161 41t105 109v292h-69q-166 0 -261 -25t-134.5 -76.5t-39.5 -139.5zM358 1085l197 240h111l-228 -240h-80z" />
<glyph unicode="&#xe2;" horiz-adv-x="935" d="M100 246q0 60 13.5 106t47 86t89 66t142.5 40.5t204 14.5h96v86q0 120 -51 182t-164 62q-88 0 -156.5 -20.5t-148.5 -59.5l-31 74q93 36 166.5 54.5t167.5 18.5q142 0 221.5 -75.5t79.5 -225.5v-368q0 -26 2.5 -61.5t5.5 -63t8.5 -80t8.5 -82.5h-68q-1 11 -16 56.5 t-17 62.5q-37 -62 -108 -100.5t-164 -38.5q-64 0 -121 15.5t-104 46.5t-75 83.5t-28 120.5zM190 248q0 -92 62 -146.5t176 -54.5q90 0 161 41t105 109v292h-69q-166 0 -261 -25t-134.5 -76.5t-39.5 -139.5zM223 1106l172 219h99l168 -219h-82l-136 151l-139 -151h-82z" />
<glyph unicode="&#xe3;" horiz-adv-x="935" d="M100 246q0 60 13.5 106t47 86t89 66t142.5 40.5t204 14.5h96v86q0 120 -51 182t-164 62q-88 0 -156.5 -20.5t-148.5 -59.5l-31 74q93 36 166.5 54.5t167.5 18.5q142 0 221.5 -75.5t79.5 -225.5v-368q0 -26 2.5 -61.5t5.5 -63t8.5 -80t8.5 -82.5h-68q-1 11 -16 56.5 t-17 62.5q-37 -62 -108 -100.5t-164 -38.5q-64 0 -121 15.5t-104 46.5t-75 83.5t-28 120.5zM186 1143q33 74 66.5 100.5t97.5 26.5q32 0 96 -34t89 -34q57 0 83 80l72 -31q-44 -121 -151 -121q-29 0 -94 37t-97 37q-65 0 -90 -92zM190 248q0 -92 62 -146.5t176 -54.5 q90 0 161 41t105 109v292h-69q-166 0 -261 -25t-134.5 -76.5t-39.5 -139.5z" />
<glyph unicode="&#xe4;" horiz-adv-x="935" d="M100 246q0 60 13.5 106t47 86t89 66t142.5 40.5t204 14.5h96v86q0 120 -51 182t-164 62q-88 0 -156.5 -20.5t-148.5 -59.5l-31 74q93 36 166.5 54.5t167.5 18.5q142 0 221.5 -75.5t79.5 -225.5v-368q0 -26 2.5 -61.5t5.5 -63t8.5 -80t8.5 -82.5h-68q-1 11 -16 56.5 t-17 62.5q-37 -62 -108 -100.5t-164 -38.5q-64 0 -121 15.5t-104 46.5t-75 83.5t-28 120.5zM190 248q0 -92 62 -146.5t176 -54.5q90 0 161 41t105 109v292h-69q-166 0 -261 -25t-134.5 -76.5t-39.5 -139.5zM264 1126v138h98v-138h-98zM569 1126v138h97v-138h-97z" />
<glyph unicode="&#xe5;" horiz-adv-x="935" d="M100 246q0 60 13.5 106t47 86t89 66t142.5 40.5t204 14.5h96v86q0 120 -51 182t-164 62q-88 0 -156.5 -20.5t-148.5 -59.5l-31 74q93 36 166.5 54.5t167.5 18.5q142 0 221.5 -75.5t79.5 -225.5v-368q0 -26 2.5 -61.5t5.5 -63t8.5 -80t8.5 -82.5h-68q-1 11 -16 56.5 t-17 62.5q-37 -62 -108 -100.5t-164 -38.5q-64 0 -121 15.5t-104 46.5t-75 83.5t-28 120.5zM190 248q0 -92 62 -146.5t176 -54.5q90 0 161 41t105 109v292h-69q-166 0 -261 -25t-134.5 -76.5t-39.5 -139.5zM281 1206q0 70 49.5 119t120.5 49q72 0 121 -48t49 -120 q0 -70 -49.5 -119t-120.5 -49q-69 0 -119.5 49.5t-50.5 118.5zM344 1208q0 -39 31 -72.5t76 -33.5q51 0 77.5 30.5t26.5 75.5t-28 76t-76 31q-46 0 -76.5 -32.5t-30.5 -74.5z" />
<glyph unicode="&#xe6;" horiz-adv-x="1533" d="M100 246q0 60 13.5 106t47 86t89 66t142.5 40.5t204 14.5h104v86q0 244 -223 244q-88 0 -156.5 -20.5t-148.5 -59.5l-31 74q93 36 166.5 54.5t167.5 18.5q111 0 184.5 -46t100.5 -138q89 184 297 184q89 0 155.5 -26.5t107.5 -71t66 -111t34.5 -138t9.5 -160.5h-648 q0 -402 297 -402q77 0 138.5 19t140.5 61l24 -76q-148 -71 -319 -71q-115 0 -192 53t-117 139q-62 -97 -137 -144.5t-189 -47.5q-64 0 -121 15t-104.5 45.5t-75 83t-27.5 122.5zM190 248q0 -93 60 -147t178 -54q87 0 162 47t110 117v278h-75q-166 0 -261 -25t-134.5 -76.5 t-39.5 -139.5zM780 516h566q0 188 -68 280.5t-219 92.5q-131 0 -200.5 -99t-78.5 -274z" />
<glyph unicode="&#xe7;" horiz-adv-x="829" d="M100 461q0 232 100 360.5t294 128.5q114 0 217 -43v-90q-93 70 -217 70q-83 0 -143.5 -32.5t-96 -91.5t-52 -134t-16.5 -168q0 -85 17.5 -157.5t53.5 -130.5t96 -91t139 -33q111 0 225 72v-96q-97 -34 -191 -43l-10 -48q69 0 109.5 -40t40.5 -87q0 -61 -43.5 -103 t-133.5 -42q-83 0 -172 12v76q116 -14 162 -14q41 0 72 17.5t31 49.5q0 34 -34 51t-134 17l30 111q-167 17 -255.5 145t-88.5 334z" />
<glyph unicode="&#xe8;" horiz-adv-x="944" d="M100 459q0 69 10.5 135t37.5 133t67.5 117t106 81t147.5 31q88 0 154.5 -26.5t106.5 -71t65 -111.5t34 -137.5t9 -160.5h-645q0 -402 296 -402q76 0 142.5 21t146.5 63l25 -76q-156 -75 -330 -75q-99 0 -172.5 37.5t-116.5 105t-63.5 151.5t-20.5 185zM190 516h566 q0 188 -68 280.5t-219 92.5q-131 0 -200.5 -99t-78.5 -274zM252 1325h110l197 -240h-80z" />
<glyph unicode="&#xe9;" horiz-adv-x="944" d="M100 459q0 69 10.5 135t37.5 133t67.5 117t106 81t147.5 31q88 0 154.5 -26.5t106.5 -71t65 -111.5t34 -137.5t9 -160.5h-645q0 -402 296 -402q76 0 142.5 21t146.5 63l25 -76q-156 -75 -330 -75q-99 0 -172.5 37.5t-116.5 105t-63.5 151.5t-20.5 185zM190 516h566 q0 188 -68 280.5t-219 92.5q-131 0 -200.5 -99t-78.5 -274zM326 1085l196 240h111l-227 -240h-80z" />
<glyph unicode="&#xea;" horiz-adv-x="944" d="M100 459q0 69 10.5 135t37.5 133t67.5 117t106 81t147.5 31q88 0 154.5 -26.5t106.5 -71t65 -111.5t34 -137.5t9 -160.5h-645q0 -402 296 -402q76 0 142.5 21t146.5 63l25 -76q-156 -75 -330 -75q-99 0 -172.5 37.5t-116.5 105t-63.5 151.5t-20.5 185zM190 516h566 q0 188 -68 280.5t-219 92.5q-131 0 -200.5 -99t-78.5 -274zM240 1106l172 219h98l168 -219h-82l-135 151l-139 -151h-82z" />
<glyph unicode="&#xeb;" horiz-adv-x="944" d="M100 459q0 69 10.5 135t37.5 133t67.5 117t106 81t147.5 31q88 0 154.5 -26.5t106.5 -71t65 -111.5t34 -137.5t9 -160.5h-645q0 -402 296 -402q76 0 142.5 21t146.5 63l25 -76q-156 -75 -330 -75q-99 0 -172.5 37.5t-116.5 105t-63.5 151.5t-20.5 185zM190 516h566 q0 188 -68 280.5t-219 92.5q-131 0 -200.5 -99t-78.5 -274zM281 1155v129h96v-129h-96zM582 1155v129h96v-129h-96z" />
<glyph unicode="&#xec;" horiz-adv-x="385" d="M37 1325h110l197 -240h-80zM152 0v936h84v-936h-84z" />
<glyph unicode="&#xed;" horiz-adv-x="385" d="M41 1085l197 240h110l-227 -240h-80zM152 0v936h84v-936h-84z" />
<glyph unicode="&#xee;" horiz-adv-x="385" d="M-27 1106l172 219h99l168 -219h-82l-135 151l-140 -151h-82zM147 0v936h84v-936h-84z" />
<glyph unicode="&#xef;" horiz-adv-x="385" d="M-6 1176v129h96v-129h-96zM154 0v936h84v-936h-84zM295 1176v129h96v-129h-96z" />
<glyph unicode="&#xf0;" d="M90 401q0 184 95 296t270 112q104 0 183 -65.5t126 -168.5q0 211 -55 354t-179 230l-186 -125l-80 47l187 125q-90 44 -209 68l-41 94q201 -39 325 -111l170 115l80 -47l-174 -117q127 -96 187.5 -250t60.5 -378q0 -100 -8.5 -181t-34.5 -163.5t-68.5 -138.5t-114.5 -91 t-169 -35q-113 0 -198 62.5t-126 159t-41 208.5zM188 401q0 -161 72 -258.5t193 -97.5q152 0 222 105t70 354q-14 35 -34 68.5t-54.5 73.5t-88 64.5t-117.5 24.5q-135 0 -199 -87.5t-64 -246.5z" />
<glyph unicode="&#xf1;" horiz-adv-x="960" d="M131 936h68l26 -148q1 1 15 19.5t20 26t24 26.5t31 29t35.5 25t44 22.5t50.5 13.5t59 6q166 0 237.5 -96.5t71.5 -269.5v-590h-84v573q0 56 -5 98.5t-19.5 85.5t-40 70.5t-69 44.5t-103.5 17q-92 0 -163.5 -66.5t-97.5 -142.5v-680h-84v737q0 43 -7 105.5t-9 93.5z M244 1143q33 74 66.5 100.5t97.5 26.5q32 0 95 -34t89 -34q58 0 84 80l72 -31q-44 -121 -152 -121q-29 0 -93.5 37t-96.5 37q-37 0 -59 -28t-32 -64z" />
<glyph unicode="&#xf2;" horiz-adv-x="976" d="M100 473q0 102 19.5 185t62.5 152t121 107.5t186 38.5q388 0 388 -483q0 -493 -388 -493q-389 0 -389 493zM190 473q0 -92 13.5 -164t45.5 -133.5t92.5 -95t147.5 -33.5q72 0 126 23t86 60.5t51.5 94.5t26.5 115.5t7 132.5q0 92 -13.5 162.5t-45.5 130t-92 91.5t-146 32 q-65 0 -116.5 -21.5t-85.5 -59t-56 -90.5t-31.5 -113.5t-9.5 -131.5zM297 1325h111l196 -240h-80z" />
<glyph unicode="&#xf3;" horiz-adv-x="976" d="M100 473q0 102 19.5 185t62.5 152t121 107.5t186 38.5q388 0 388 -483q0 -493 -388 -493q-389 0 -389 493zM190 473q0 -92 13.5 -164t45.5 -133.5t92.5 -95t147.5 -33.5q72 0 126 23t86 60.5t51.5 94.5t26.5 115.5t7 132.5q0 92 -13.5 162.5t-45.5 130t-92 91.5t-146 32 q-65 0 -116.5 -21.5t-85.5 -59t-56 -90.5t-31.5 -113.5t-9.5 -131.5zM350 1085l197 240h110l-227 -240h-80z" />
<glyph unicode="&#xf4;" horiz-adv-x="976" d="M100 473q0 102 19.5 185t62.5 152t121 107.5t186 38.5q388 0 388 -483q0 -493 -388 -493q-389 0 -389 493zM190 473q0 -92 13.5 -164t45.5 -133.5t92.5 -95t147.5 -33.5q72 0 126 23t86 60.5t51.5 94.5t26.5 115.5t7 132.5q0 92 -13.5 162.5t-45.5 130t-92 91.5t-146 32 q-65 0 -116.5 -21.5t-85.5 -59t-56 -90.5t-31.5 -113.5t-9.5 -131.5zM272 1106l172 219h99l168 -219h-82l-135 151l-140 -151h-82z" />
<glyph unicode="&#xf5;" horiz-adv-x="976" d="M100 473q0 102 19.5 185t62.5 152t121 107.5t186 38.5q388 0 388 -483q0 -493 -388 -493q-389 0 -389 493zM190 473q0 -92 13.5 -164t45.5 -133.5t92.5 -95t147.5 -33.5q72 0 126 23t86 60.5t51.5 94.5t26.5 115.5t7 132.5q0 92 -13.5 162.5t-45.5 130t-92 91.5t-146 32 q-65 0 -116.5 -21.5t-85.5 -59t-56 -90.5t-31.5 -113.5t-9.5 -131.5zM211 1143q33 74 66.5 100.5t97.5 26.5q31 0 95 -34t89 -34q58 0 84 80l72 -31q-44 -121 -152 -121q-29 0 -93.5 37t-96.5 37q-65 0 -90 -92z" />
<glyph unicode="&#xf6;" horiz-adv-x="976" d="M100 473q0 102 19.5 185t62.5 152t121 107.5t186 38.5q388 0 388 -483q0 -493 -388 -493q-389 0 -389 493zM190 473q0 -92 13.5 -164t45.5 -133.5t92.5 -95t147.5 -33.5q72 0 126 23t86 60.5t51.5 94.5t26.5 115.5t7 132.5q0 92 -13.5 162.5t-45.5 130t-92 91.5t-146 32 q-65 0 -116.5 -21.5t-85.5 -59t-56 -90.5t-31.5 -113.5t-9.5 -131.5zM279 1155v129h96v-129h-96zM580 1155v129h96v-129h-96z" />
<glyph unicode="&#xf7;" d="M61 401v88h820v-88h-820zM416 41v141h114v-141h-114zM416 743v142h114v-142h-114z" />
<glyph unicode="&#xf8;" horiz-adv-x="976" d="M25 18l137 144q-62 124 -62 311q0 102 19.5 185t62.5 152t121 107.5t186 38.5q198 0 293 -125l123 134l66 -62l-142 -151q48 -113 48 -279q0 -493 -388 -493q-178 0 -276 106l-123 -129zM190 473q0 -146 35 -244l500 541q-72 119 -236 119q-65 0 -116.5 -21.5t-85.5 -59 t-56 -90.5t-31.5 -113.5t-9.5 -131.5zM268 145q72 -98 221 -98q72 0 126 23t86 60.5t51.5 94.5t26.5 115.5t7 132.5q0 123 -22 207z" />
<glyph unicode="&#xf9;" horiz-adv-x="946" d="M147 346v590h84v-574q0 -56 4.5 -98.5t19.5 -85t39.5 -70t67.5 -44.5t101 -17q91 0 158 65.5t94 143.5v680h84v-737q0 -43 7 -105.5t9 -93.5h-67l-27 147q-1 -1 -20 -27t-29 -37.5t-36 -35t-50.5 -35.5t-63.5 -22t-82 -10q-158 0 -225.5 96t-67.5 270zM285 1325h110 l197 -240h-80z" />
<glyph unicode="&#xfa;" horiz-adv-x="946" d="M147 346v590h84v-574q0 -56 4.5 -98.5t19.5 -85t39.5 -70t67.5 -44.5t101 -17q91 0 158 65.5t94 143.5v680h84v-737q0 -43 7 -105.5t9 -93.5h-67l-27 147q-1 -1 -20 -27t-29 -37.5t-36 -35t-50.5 -35.5t-63.5 -22t-82 -10q-158 0 -225.5 96t-67.5 270zM334 1085l196 240 h111l-227 -240h-80z" />
<glyph unicode="&#xfb;" horiz-adv-x="946" d="M147 346v590h84v-574q0 -56 4.5 -98.5t19.5 -85t39.5 -70t67.5 -44.5t101 -17q91 0 158 65.5t94 143.5v680h84v-737q0 -43 7 -105.5t9 -93.5h-67l-27 147q-1 -1 -20 -27t-29 -37.5t-36 -35t-50.5 -35.5t-63.5 -22t-82 -10q-158 0 -225.5 96t-67.5 270zM260 1106l172 219 h98l168 -219h-82l-135 151l-139 -151h-82z" />
<glyph unicode="&#xfc;" horiz-adv-x="946" d="M147 346v590h84v-574q0 -56 4.5 -98.5t19.5 -85t39.5 -70t67.5 -44.5t101 -17q91 0 158 65.5t94 143.5v680h84v-737q0 -43 7 -105.5t9 -93.5h-67l-27 147q-1 -1 -20 -27t-29 -37.5t-36 -35t-50.5 -35.5t-63.5 -22t-82 -10q-158 0 -225.5 96t-67.5 270zM274 1155v129h97 v-129h-97zM575 1155v129h97v-129h-97z" />
<glyph unicode="&#xfd;" horiz-adv-x="950" d="M86 936l90 2l328 -803l278 801h82l-391 -1086q-38 -104 -87.5 -151t-162.5 -88l-24 78q146 40 180 133l82 217zM358 1085l197 240h111l-228 -240h-80z" />
<glyph unicode="&#xfe;" horiz-adv-x="964" d="M131 -369q16 159 16 656v1059h84v-558q35 63 110.5 115.5t170.5 52.5q93 0 162.5 -38.5t110 -106.5t60 -152.5t19.5 -185.5q0 -83 -12 -154.5t-39 -134.5t-68.5 -107.5t-103 -70.5t-139.5 -26q-82 0 -159.5 40.5t-117.5 98.5l-26 -488h-68zM227 203q46 -75 112 -115.5 t142 -40.5q293 0 293 422q0 213 -72 316.5t-196 103.5q-51 0 -96.5 -18t-74.5 -42.5t-53.5 -56.5t-36 -53.5t-18.5 -40.5v-475z" />
<glyph unicode="&#xff;" horiz-adv-x="950" d="M86 936l90 2l328 -803l278 801h82l-391 -1086q-38 -104 -87.5 -151t-162.5 -88l-24 78q146 40 180 133l82 217zM287 1157v127h94v-127h-94zM584 1157v127h94v-127h-94z" />
<glyph unicode="&#x152;" horiz-adv-x="1837" d="M133 657q0 121 17.5 222.5t58.5 189.5t103 148t155 94.5t211 34.5q90 0 166 -21h852v-76h-701q178 -140 193 -526h465v-76h-463q0 -185 -45 -336t-144 -235h713v-76h-840q-97 -33 -198 -33q-123 0 -217.5 34.5t-155.5 94.5t-99.5 149t-54.5 189t-16 223zM231 657 q0 -109 12 -196.5t43.5 -167.5t81 -133.5t127.5 -85t181 -31.5q100 0 174.5 31.5t120.5 84.5t74 134t38.5 167.5t10.5 196.5q0 113 -10 200t-38 167t-74 132t-120.5 83t-175.5 31q-103 0 -181 -30.5t-128 -83.5t-80.5 -132t-43 -167.5t-12.5 -199.5z" />
<glyph unicode="&#x153;" horiz-adv-x="1626" d="M100 473q0 102 19.5 185t62.5 152t121 107.5t186 38.5q273 0 345 -245q78 245 315 245q89 0 155.5 -26.5t107.5 -71t66 -111t34.5 -138t9.5 -160.5h-648q0 -402 297 -402q77 0 138.5 19t140.5 61l25 -76q-148 -71 -320 -71q-250 0 -326 241q-71 -241 -340 -241 q-389 0 -389 493zM190 473q0 -92 13.5 -164t45.5 -133.5t92.5 -95t147.5 -33.5q72 0 126 23t86 60.5t51.5 94.5t26.5 115.5t7 132.5q0 92 -13.5 162.5t-45.5 130t-92 91.5t-146 32q-65 0 -116.5 -21.5t-85.5 -59t-56 -90.5t-31.5 -113.5t-9.5 -131.5zM872 516h566 q0 188 -68 280.5t-219 92.5q-131 0 -200.5 -99t-78.5 -274z" />
<glyph unicode="&#x178;" horiz-adv-x="1089" d="M35 1325h106l420 -645l400 645h94l-451 -729v-596h-94v588zM367 1466v129h96v-129h-96zM668 1466v129h96v-129h-96z" />
<glyph unicode="&#x2c6;" horiz-adv-x="385" d="M-27 1106l172 219h99l168 -219h-82l-135 151l-140 -151h-82z" />
<glyph unicode="&#x2dc;" horiz-adv-x="385" d="M-59 1143q33 74 66 100.5t97 26.5q32 0 96 -34t89 -34q58 0 84 80l71 -31q-44 -121 -151 -121q-29 0 -94 37t-97 37q-65 0 -90 -92z" />
<glyph unicode="&#x2000;" horiz-adv-x="855" />
<glyph unicode="&#x2001;" horiz-adv-x="1710" />
<glyph unicode="&#x2002;" horiz-adv-x="855" />
<glyph unicode="&#x2003;" horiz-adv-x="1710" />
<glyph unicode="&#x2004;" horiz-adv-x="570" />
<glyph unicode="&#x2005;" horiz-adv-x="427" />
<glyph unicode="&#x2006;" horiz-adv-x="285" />
<glyph unicode="&#x2007;" horiz-adv-x="285" />
<glyph unicode="&#x2008;" horiz-adv-x="213" />
<glyph unicode="&#x2009;" horiz-adv-x="342" />
<glyph unicode="&#x200a;" horiz-adv-x="95" />
<glyph unicode="&#x2010;" horiz-adv-x="645" d="M61 475v82h523v-82h-523z" />
<glyph unicode="&#x2011;" horiz-adv-x="645" d="M61 475v82h523v-82h-523z" />
<glyph unicode="&#x2012;" horiz-adv-x="645" d="M61 475v82h523v-82h-523z" />
<glyph unicode="&#x2013;" horiz-adv-x="1024" d="M-2 446v91h1028v-91h-1028z" />
<glyph unicode="&#x2014;" horiz-adv-x="2048" d="M-2 446v91h2052v-91h-2052z" />
<glyph unicode="&#x2018;" horiz-adv-x="471" d="M92 942l203 385h74l-174 -385h-103z" />
<glyph unicode="&#x2019;" horiz-adv-x="471" d="M102 940l170 385h107l-199 -385h-78z" />
<glyph unicode="&#x201a;" horiz-adv-x="471" d="M102 -180l170 385h107l-199 -385h-78z" />
<glyph unicode="&#x201c;" horiz-adv-x="696" d="M82 942l203 385h73l-174 -385h-102zM338 942l201 385h75l-174 -385h-102z" />
<glyph unicode="&#x201d;" horiz-adv-x="696" d="M82 940l174 385h102l-200 -385h-76zM334 940l174 385h106l-202 -385h-78z" />
<glyph unicode="&#x201e;" horiz-adv-x="696" d="M82 -180l174 385h102l-200 -385h-76zM334 -180l174 385h106l-202 -385h-78z" />
<glyph unicode="&#x2022;" d="M227 664q0 103 70.5 173t173.5 70t173.5 -70t70.5 -173t-70.5 -174.5t-173.5 -71.5t-173.5 71.5t-70.5 174.5z" />
<glyph unicode="&#x2026;" horiz-adv-x="1413" d="M178 0v141h115v-141h-115zM649 0v141h115v-141h-115zM1120 0v141h115v-141h-115z" />
<glyph unicode="&#x202f;" horiz-adv-x="342" />
<glyph unicode="&#x2039;" horiz-adv-x="471" d="M86 553l190 373h91l-199 -369l197 -369h-89z" />
<glyph unicode="&#x203a;" horiz-adv-x="471" d="M104 926h91l190 -373l-190 -365h-89l197 369z" />
<glyph unicode="&#x205f;" horiz-adv-x="427" />
<glyph unicode="&#x2122;" horiz-adv-x="1822" d="M184 1270v55h543v-55h-240v-674h-65v674h-238zM834 598v727h84l290 -639l291 639h78v-727h-61v659l-295 -659h-31l-299 659v-659h-57z" />
<glyph unicode="&#x25fc;" horiz-adv-x="931" d="M0 0v932h932v-932h-932z" />
<glyph unicode="&#xfb01;" horiz-adv-x="819" d="M35 868v68h141v139q0 128 66 195t188 92l25 -76q-109 -22 -152 -67t-43 -138v-145h172v-68h-172v-868h-84v868h-141zM580 1186v139h96v-139h-96zM586 0v936h84v-936h-84z" />
<glyph unicode="&#xfb02;" horiz-adv-x="819" d="M35 868v68h141v139q0 128 66 195t188 92l25 -76q-109 -22 -152 -67t-43 -138v-145h172v-68h-172v-868h-84v868h-141zM588 0v1346h84v-1346h-84z" />
</font>
</defs>
</svg>
